osu file format v14

[General]
AudioFilename: gin no ishi.mp3
AudioLeadIn: 1500
PreviewTime: 56987
Countdown: 0
SampleSet: Soft
StackLeniency: 0.7
Mode: 0
LetterboxInBreaks: 0
WidescreenStoryboard: 0

[Editor]
DistanceSpacing: 1.5
BeatDivisor: 4
GridSize: 4
TimelineZoom: 2.2

[Metadata]
Title:Gin no Ishi
TitleUnicode:銀の意志
Artist:Falcom Sound Team jdk
ArtistUnicode:Falcom Sound Team jdk
Creator:Lily Bread
Version:Hard
Source:英雄伝説VI 空の軌跡
Tags:The Legend Of Heroes VI Sora no Kiseki えいゆうでんせつ video game レオンハルト レーヴェ 身喰らう蛇 ウロボロス Ouroboros 剣帝 Leonhardt
BeatmapID:758494
BeatmapSetID:336810

[Difficulty]
HPDrainRate:5
CircleSize:4
OverallDifficulty:6
ApproachRate:8
SliderMultiplier:1.4
SliderTickRate:1

[Events]
//Background and Video events
0,0,"BG.jpg",0,0
//Break Periods
//Storyboard Layer 0 (Background)
//Storyboard Layer 1 (Fail)
//Storyboard Layer 2 (Pass)
//Storyboard Layer 3 (Foreground)
//Storyboard Sound Samples

[TimingPoints]
554,419.58041958042,4,2,1,60,1,0
3910,-100,4,2,1,70,0,1
17337,-100,4,2,1,60,0,0
18910,-100,4,2,0,60,0,0
20588,-100,4,2,1,60,0,0
25728,-100,4,2,0,60,0,0
27302,-100,4,2,1,60,0,0
32337,-100,4,2,0,60,0,0
34015,-100,4,2,1,60,0,0
43246,-100,4,2,0,60,0,0
43665,-100,4,2,1,60,0,0
49959,-100,4,2,0,60,0,0
50379,-100,4,2,1,60,0,0
57616,-100,4,2,1,70,0,0

[HitObjects]
272,72,3910,6,0,L|248:158,1,70,4|0,0:0|0:0,0:0:0:0:
129,132,4330,2,0,L|159:45,1,70,8|0,0:0|0:0,0:0:0:0:
253,139,4749,2,0,L|231:215,1,70,0|0,0:0|0:0,0:0:0:0:
105,197,5169,2,0,L|133:118,1,70,8|0,0:0|0:0,0:0:0:0:
232,68,5588,6,0,B|274:57|317:80|334:121|324:158,1,140,0|8,0:0|0:0,0:0:0:0:
228,172,6218,1,0,0:0:0:0:
124,204,6428,2,0,B|138:253|184:282|231:280,1,140,0|8,0:0|0:0,0:0:0:0:
228,172,7057,1,0,0:0:0:0:
292,87,7267,6,0,B|292:120|292:120|328:176|284:240,1,140,4|8,0:0|0:0,0:0:0:0:
295,221,7896,1,0,0:0:0:0:
196,180,8106,2,0,B|215:124|178:65|120:56,1,140,0|8,0:0|0:0,0:0:0:0:
100,152,8735,1,0,0:0:0:0:
108,256,8945,6,0,B|127:308|187:331|236:308,1,140,0|8,0:0|0:0,0:0:0:0:
320,280,9574,1,0,0:0:0:0:
404,216,9784,2,0,B|417:193|419:167|412:144,1,70,,,0:0:0:0:
384,48,10204,1,8,0:0:0:0:
288,60,10414,5,0,0:0:0:0:
288,60,10519,1,0,0:0:0:0:
288,60,10623,2,0,B|224:52|224:52|192:64|144:72,1,140,4|8,0:0|0:0,0:0:0:0:
76,144,11253,1,0,0:0:0:0:
80,248,11463,1,0,0:0:0:0:
164,308,11672,1,0,0:0:0:0:
268,324,11882,2,0,L|344:316,1,70,8|0,0:0|0:0,0:0:0:0:
436,264,12302,6,0,B|457:216|442:163|405:133,1,140,0|8,0:0|0:0,0:0:0:0:
340,216,12931,1,0,0:0:0:0:
340,216,13141,2,0,L|244:216,1,70,0|0,0:0|0:0,0:0:0:0:
220,128,13560,1,8,0:0:0:0:
220,128,13770,1,0,0:0:0:0:
324,108,13980,6,0,L|412:84,1,70,4|0,0:0|0:0,0:0:0:0:
432,188,14400,2,0,L|368:264,1,70,8|0,0:0|0:0,0:0:0:0:
272,196,14819,2,0,L|356:176,1,70,0|0,0:0|0:0,0:0:0:0:
336,32,15239,2,0,L|240:40,1,70,8|8,0:0|0:0,0:0:0:0:
164,84,15658,6,0,L|116:88,3,35,8|0|8|0,0:0|0:0|0:0|0:0,0:0:0:0:
120,140,16078,2,0,L|60:144,3,35,8|0|8|0,0:0|0:0|0:0|0:0,0:0:0:0:
132,200,16498,2,0,L|208:188,1,70,8|8,0:0|0:0,0:0:0:0:
160,268,16917,2,0,L|232:256,1,70,8|8,0:0|0:0,0:0:0:0:
108,328,17337,6,0,B|60:302|43:243|68:197,1,140,4|8,0:0|0:0,0:0:0:0:
76,104,17966,1,0,0:0:0:0:
160,44,18176,2,0,B|209:29|260:55|280:99,1,140,0|8,0:0|0:0,0:0:0:0:
184,148,18805,1,0,0:0:0:0:
80,180,19015,6,0,B|93:232|145:262|195:252,1,140,2|0,0:0|0:0,0:0:0:0:
184,148,19644,1,0,0:0:0:0:
200,44,19854,2,0,B|251:42|291:83|292:131,1,140,2|0,0:0|0:0,0:0:0:0:
300,236,20484,1,0,0:0:0:0:
348,328,20693,6,0,B|398:314|428:269|428:221,1,140,4|8,0:0|0:0,0:0:0:0:
324,224,21323,1,0,0:0:0:0:
324,224,21533,2,0,B|318:174|273:139|225:144,1,140,0|8,0:0|0:0,0:0:0:0:
228,248,22162,1,0,0:0:0:0:
140,192,22372,5,0,0:0:0:0:
140,192,22791,2,0,B|107:143|127:76|180:52,1,140,8|2,0:0|0:0,0:0:0:0:
260,92,23421,2,0,L|336:92,1,70,,,0:0:0:0:
408,164,23840,1,8,0:0:0:0:
372,264,24050,6,0,B|354:308|307:331|261:320|233:289,1,140,4|8,0:0|0:0,0:0:0:0:
216,208,24679,1,0,0:0:0:0:
220,104,24889,2,0,B|250:69|298:59|339:76|363:107,1,140,0|8,0:0|0:0,0:0:0:0:
296,180,25519,1,0,0:0:0:0:
296,180,25623,1,0,0:0:0:0:
296,180,25728,6,0,L|296:288,2,105,2|0|0,0:0|0:0|0:0,0:0:0:0:
216,208,26567,2,0,L|216:312,2,105,2|0|0,0:0|0:0|0:0,0:0:0:0:
108,204,27407,6,0,B|109:152|148:112|195:104,1,140,4|8,0:0|0:0,0:0:0:0:
292,72,28036,1,0,0:0:0:0:
292,72,28246,2,0,L|380:64,2,70,0|0|8,0:0|0:0|0:0,0:0:0:0:
348,160,28875,1,8,0:0:0:0:
348,160,28980,1,0,0:0:0:0:
348,160,29085,6,0,L|368:248,1,70,0|0,0:0|0:0,0:0:0:0:
284,300,29505,2,0,L|272:228,1,70,0|8,0:0|0:0,0:0:0:0:
200,152,29924,1,0,0:0:0:0:
200,152,30134,1,0,0:0:0:0:
168,252,30344,1,0,0:0:0:0:
168,252,30554,1,8,0:0:0:0:
88,320,30763,6,0,B|44:252|48:172,1,140,4|8,0:0|0:0,0:0:0:0:
104,100,31393,1,0,0:0:0:0:
200,56,31602,2,0,B|237:39|282:61|291:108|269:139,1,140,0|8,0:0|0:0,0:0:0:0:
204,216,32232,1,0,0:0:0:0:
108,264,32442,6,0,B|131:311|184:331|231:316,1,140,2|0,0:0|0:0,0:0:0:0:
328,316,33071,1,0,0:0:0:0:
328,316,33281,2,0,B|382:294|411:239|404:185,1,140,2|0,0:0|0:0,0:0:0:0:
308,168,33910,1,0,0:0:0:0:
348,68,34120,6,0,L|432:68,1,70,4|0,0:0|0:0,0:0:0:0:
445,170,34540,2,0,B|392:185|338:180|292:161,1,140,8|0,0:0|0:0,0:0:0:0:
256,296,35169,2,0,B|275:279|282:255|277:232,1,70,0|8,0:0|0:0,0:0:0:0:
204,160,35588,1,0,0:0:0:0:
140,88,35798,6,0,B|177:54|232:55|267:87,2,140,2|8|2,0:0|0:0|0:0,0:0:0:0:
204,160,36847,1,0,0:0:0:0:
224,264,37057,2,0,B|234:297|282:297,1,70,0|8,0:0|0:0,0:0:0:0:
364,360,37477,6,0,B|397:316|390:256|353:221,1,140,4|8,0:0|0:0,0:0:0:0:
264,268,38106,1,0,0:0:0:0:
252,164,38316,2,0,B|198:142|138:170|120:223,1,140,0|8,0:0|0:0,0:0:0:0:
160,304,38945,1,0,0:0:0:0:
160,304,39050,1,0,0:0:0:0:
160,304,39155,6,0,B|203:330|255:330|296:308,1,140,2|8,0:0|0:0,0:0:0:0:
228,228,39784,1,0,0:0:0:0:
144,164,39994,2,0,B|176:121|235:111|279:135,1,140,2|8,0:0|0:0,0:0:0:0:
228,228,40623,1,0,0:0:0:0:
292,312,40833,6,0,B|363:273|390:188|361:117,1,210,4|0,0:0|0:0,0:0:0:0:
301,48,41672,1,2,0:0:0:0:
112,112,42092,1,8,0:0:0:0:
112,112,42302,6,0,L|52:136,2,35,0|0|0,0:0|0:0|0:0,0:0:0:0:
204,60,42721,1,0,0:0:0:0:
204,60,42931,1,8,0:0:0:0:
248,156,43141,1,0,0:0:0:0:
248,156,43351,2,0,L|304:240,1,70,2|2,0:0|0:0,0:0:0:0:
220,296,43770,2,0,L|172:220,1,70,,,0:0:0:0:
88,188,44190,5,2,0:0:0:0:
272,44,45239,5,0,0:0:0:0:
180,120,45449,1,0,0:0:0:0:
292,152,45658,1,0,0:0:0:0:
272,44,45868,1,2,0:0:0:0:
448,336,46707,5,0,0:0:0:0:
328,332,46917,1,0,0:0:0:0:
392,240,47127,1,0,0:0:0:0:
220,100,47547,1,2,0:0:0:0:
125,54,48595,5,0,0:0:0:0:
136,160,48805,1,0,0:0:0:0:
220,100,49015,1,0,0:0:0:0:
232,204,49225,1,2,0:0:0:0:
400,96,50064,6,0,L|388:184,1,70,2|2,0:0|0:0,0:0:0:0:
368,268,50484,1,0,0:0:0:0:
264,280,50693,1,0,0:0:0:0:
160,216,50903,1,2,0:0:0:0:
144,72,52581,5,2,0:0:0:0:
344,104,53421,5,0,0:0:0:0:
272,260,53840,1,0,0:0:0:0:
112,204,54260,1,2,0:0:0:0:
253,241,55309,5,0,0:0:0:0:
253,241,55519,2,0,L|173:249,1,70,0|0,0:0|0:0,0:0:0:0:
116,328,55938,6,0,B|69:294|63:227|100:184,1,140,2|8,0:0|0:0,0:0:0:0:
112,104,56567,1,0,0:0:0:0:
204,48,56777,2,0,L|280:72,1,70,0|0,0:0|0:0,0:0:0:0:
360,132,57197,2,0,B|396:146|424:172,1,70,8|0,0:0|0:0,0:0:0:0:
476,264,57616,6,0,B|444:305|388:315|345:293,1,140,4|8,0:0|0:0,0:0:0:0:
392,200,58246,1,0,0:0:0:0:
436,108,58456,2,0,B|382:84|321:109|296:159,1,140,0|8,0:0|0:0,0:0:0:0:
392,200,59085,1,0,0:0:0:0:
472,260,59295,6,0,B|483:207|476:155|455:111,1,140,0|8,0:0|0:0,0:0:0:0:
392,200,59924,1,0,0:0:0:0:
301,220,60134,2,0,B|299:195|303:172|312:151,1,70,0|0,0:0|0:0,0:0:0:0:
392,200,60554,1,8,0:0:0:0:
392,200,60763,1,0,0:0:0:0:
384,96,60973,6,0,B|380:44|380:44|352:0|296:24,1,140,4|8,0:0|0:0,0:0:0:0:
204,52,61602,1,0,0:0:0:0:
108,88,61812,2,0,L|80:176,1,70,0|0,0:0|0:0,0:0:0:0:
192,164,62232,2,0,B|164:248,1,70,8|0,0:0|0:0,0:0:0:0:
160,336,62651,6,0,B|244:336|268:264,1,140,0|8,0:0|0:0,0:0:0:0:
192,188,63281,1,0,0:0:0:0:
256,104,63491,2,0,L|252:40,2,35,0|8|0,0:0|0:0|0:0,0:0:0:0:
320,188,63910,2,0,B|339:161|342:128|332:100,1,70,0|8,0:0|0:0,0:0:0:0:
428,72,64330,6,0,B|446:118|443:167|424:208,1,140,4|8,0:0|0:0,0:0:0:0:
344,272,64959,1,0,0:0:0:0:
252,224,65169,2,0,B|226:272|242:329|283:359,1,140,0|8,0:0|0:0,0:0:0:0:
344,272,65798,2,0,L|384:236,1,35,0|0,0:0|0:0,0:0:0:0:
400,224,66008,6,0,B|437:182|436:122|405:81,1,140,2|8,0:0|0:0,0:0:0:0:
308,84,66637,1,0,0:0:0:0:
248,168,66847,2,0,L|220:88,2,70,0|0|8,0:0|0:0|0:0,0:0:0:0:
296,260,67477,1,0,0:0:0:0:
196,288,67686,6,0,L|124:320,2,70,4|0|8,0:0|0:0|0:0,0:0:0:0:
268,208,68316,1,0,0:0:0:0:
188,140,68526,2,0,B|163:139|163:139|115:119|75:139|75:139|24:136,1,140,0|8,0:0|0:0,0:0:0:0:
116,216,69155,1,8,0:0:0:0:
244,188,69365,6,0,L|272:112,1,70,8|8,0:0|0:0,0:0:0:0:
304,220,69784,2,0,L|276:296,1,70,8|8,0:0|0:0,0:0:0:0:
364,256,70204,2,0,L|384:196,4,35,8|0|0|0|8,0:0|0:0|0:0|0:0|0:0,0:0:0:0:
288,328,70833,1,0,0:0:0:0:
184,308,71043,6,0,B|137:289|110:244|112:197,1,140,4|8,0:0|0:0,0:0:0:0:
140,96,71672,2,8,B|147:69|170:50|195:48,1,70,0|0,0:0|0:0,0:0:0:0:
240,136,72092,1,0,0:0:0:0:
296,52,72302,2,8,B|378:68|378:152,1,140,8|0,0:0|0:0,0:0:0:0:
280,336,73141,5,8,0:0:0:0:
108,224,73560,2,0,L|28:204,2,70,0|0|8,0:0|0:0|0:0,0:0:0:0:
160,132,74190,1,0,0:0:0:0:
252,80,74400,6,0,B|298:88|331:125|338:170|324:207,1,140,4|8,0:0|0:0,0:0:0:0:
224,184,75029,1,0,0:0:0:0:
308,248,75239,2,0,B|307:299|266:339|217:340,1,140,0|8,0:0|0:0,0:0:0:0:
204,236,75868,1,0,0:0:0:0:
116,296,76078,6,0,B|84:253|91:195|127:161,1,140,0|8,0:0|0:0,0:0:0:0:
204,236,76707,1,0,0:0:0:0:
272,156,76917,2,0,L|296:120,2,35,0|8|0,0:0|0:0|0:0,0:0:0:0:
208,240,77337,2,0,L|184:276,2,35,0|0|8,0:0|0:0|0:0,0:0:0:0:
108,224,77756,6,0,L|156:164,1,70,4|0,0:0|0:0,0:0:0:0:
250,184,78176,2,0,L|198:252,1,70,8|0,0:0|0:0,0:0:0:0:
308,276,78595,1,0,0:0:0:0:
308,276,78805,1,0,0:0:0:0:
376,196,79015,1,8,0:0:0:0:
376,196,79225,1,0,0:0:0:0:
420,100,79435,6,0,L|380:28,1,70,4|0,0:0|0:0,0:0:0:0:
284,56,79854,1,8,0:0:0:0:
184,88,80064,1,0,0:0:0:0:
96,144,80274,2,0,L|84:228,1,70,0|0,0:0|0:0,0:0:0:0:
132,308,80693,1,8,0:0:0:0:
236,316,80903,1,0,0:0:0:0:
340,320,81113,6,0,B|380:324|416:301|431:263|424:229,1,140,4|8,0:0|0:0,0:0:0:0:
404,128,81742,1,0,0:0:0:0:
328,52,81952,2,0,B|272:120|316:188,1,140,0|8,0:0|0:0,0:0:0:0:
404,248,82581,1,8,0:0:0:0:
404,248,82686,1,0,0:0:0:0:
404,248,82791,6,0,B|344:260|292:244|248:248,1,140,8|8,0:0|0:0,0:0:0:0:
160,244,83421,1,8,0:0:0:0:
96,164,83630,1,8,0:0:0:0:
184,104,83840,1,0,0:0:0:0:
184,104,84050,2,0,B|209:88|239:88|264:100,1,70,8|0,0:0|0:0,0:0:0:0:
352,128,84470,6,0,L|420:180,1,70,4|0,0:0|0:0,0:0:0:0:
472,252,84889,1,8,0:0:0:0:
412,336,85099,1,0,0:0:0:0:
308,336,85309,2,0,B|259:348|211:321|192:277,1,140,0|8,0:0|0:0,0:0:0:0:
284,240,85938,1,0,0:0:0:0:
368,180,86148,6,0,L|316:124,1,70,0|0,0:0|0:0,0:0:0:0:
220,108,86567,1,8,0:0:0:0:
220,108,86777,1,0,0:0:0:0:
128,160,86987,2,0,B|87:179|73:233|105:274|146:280,1,140,0|8,0:0|0:0,0:0:0:0:
224,312,87616,1,0,0:0:0:0:
328,320,87826,6,0,B|374:310|406:272|412:226|396:189,1,140,4|8,0:0|0:0,0:0:0:0:
336,136,88456,1,0,0:0:0:0:
240,96,88665,2,0,L|164:72,1,70,0|0,0:0|0:0,0:0:0:0:
128,172,89085,2,0,L|220:180,1,70,8|0,0:0|0:0,0:0:0:0:
284,240,89505,6,0,B|293:283|272:325|235:347|197:348,1,140,2|8,0:0|0:0,0:0:0:0:
180,248,90134,1,0,0:0:0:0:
116,164,90344,2,0,L|84:120,2,35,0|8|0,0:0|0:0|0:0,0:0:0:0:
208,116,90763,2,0,L|240:160,2,35,0|0|8,0:0|0:0|0:0,0:0:0:0:
311,87,91183,6,0,B|367:71|426:102|446:160|432:209,1,210,4|0,0:0|0:0,0:0:0:0:
328,216,92022,2,0,B|324:257|279:283|235:261|225:224,1,140,0|8,0:0|0:0,0:0:0:0:
248,128,92651,1,0,0:0:0:0:
248,128,92756,1,0,0:0:0:0:
248,128,92861,6,0,B|209:92|149:97|116:136,1,140,2|0,0:0|0:0,0:0:0:0:
152,232,93491,1,0,0:0:0:0:
152,232,93700,2,0,B|120:260|75:262|40:239|24:205,1,140,0|8,0:0|0:0,0:0:0:0:
124,40,94540,6,0,B|207:21|288:67|316:142,1,210,4|0,0:0|0:0,0:0:0:0:
408,96,95379,2,0,B|419:151|387:203|337:220,1,140,0|8,0:0|0:0,0:0:0:0:
264,260,96008,1,8,0:0:0:0:
264,260,96113,1,0,0:0:0:0:
264,260,96218,6,0,L|176:248,1,70,8|8,0:0|0:0,0:0:0:0:
184,148,96637,2,0,L|272:144,1,70,8|8,0:0|0:0,0:0:0:0:
344,92,97057,2,0,L|364:56,2,35,8|0|8,0:0|0:0|0:0,0:0:0:0:
424,156,97477,2,0,L|464:232,1,70,8|0,0:0|0:0,0:0:0:0:
460,320,97896,6,0,B|438:360|385:372|345:342|336:302,1,140,4|8,0:0|0:0,0:0:0:0:
280,240,98526,1,0,0:0:0:0:
268,136,98735,2,0,B|280:92|319:62|364:58|399:76,1,140,0|8,0:0|0:0,0:0:0:0:
468,116,99365,1,0,0:0:0:0:
476,220,99574,6,0,B|458:271|400:294|352:272,1,140,0|8,0:0|0:0,0:0:0:0:
362,276,100204,1,0,0:0:0:0:
336,180,100414,1,0,0:0:0:0:
336,180,100623,1,0,0:0:0:0:
340,76,100833,2,0,L|424:64,1,70,8|0,0:0|0:0,0:0:0:0:
452,164,101253,6,0,B|489:206|482:269|441:304,1,140,4|8,0:0|0:0,0:0:0:0:
368,228,101882,1,0,0:0:0:0:
287,159,102092,2,0,B|252:195|250:250|279:287,1,140,0|8,0:0|0:0,0:0:0:0:
176,272,102721,1,0,0:0:0:0:
108,192,102931,6,0,L|88:116,1,70,2|0,0:0|0:0,0:0:0:0:
192,96,103351,2,0,L|272:76,1,70,8|0,0:0|0:0,0:0:0:0:
196,172,103770,2,0,L|212:232,2,35,0|8|0,0:0|0:0|0:0,0:0:0:0:
252,264,104190,2,0,L|328:264,1,70,0|8,0:0|0:0,0:0:0:0:
428,252,104609,6,0,B|484:225|508:160|486:100|442:69,1,210,4|0,0:0|0:0,0:0:0:0:
344,88,105449,2,0,B|302:49|236:57|204:104,1,140,2|8,0:0|0:0,0:0:0:0:
132,152,106078,1,0,0:0:0:0:
132,152,106183,1,0,0:0:0:0:
132,152,106288,6,0,B|126:203|169:247|220:244,1,140,4|8,0:0|0:0,0:0:0:0:
316,216,106917,1,0,0:0:0:0:
416,188,107127,2,0,B|443:139|423:79|377:52,1,140,0|8,0:0|0:0,0:0:0:0:
180,64,107966,6,0,B|100:50|24:118|35:212|94:258,1,280,4|0,0:0|0:0,0:0:0:0:
256,192,109225,12,2,111323,0:0:0:0:
